<?xml version="1.0" standalone="no"?>
<!DOCTYPE svg PUBLIC "-//W3C//DTD SVG 1.1//EN" "http://www.w3.org/Graphics/SVG/1.1/DTD/svg11.dtd" >
<svg xmlns="http://www.w3.org/2000/svg">
<metadata>Generated by IcoMoon</metadata>
<defs>
<font id="icomoon" horiz-adv-x="1024">
<font-face units-per-em="1024" ascent="960" descent="-64" />
<missing-glyph horiz-adv-x="1024" />
<glyph unicode="&#x20;" horiz-adv-x="512" d="" />
<glyph unicode="&#xe900;" glyph-name="at" d="M512-64c-282.083 0-512 229.917-512 512s229.917 512 512 512c282.083 0 512-229.917 512-512v-144.906c0-82.113-67.623-149.736-149.736-149.736-75.351 0-138.143 56.030-148.77 129.449-49.268-63.758-126.551-105.298-213.494-105.298-148.77 0-270.491 121.721-270.491 270.491s121.721 270.491 270.491 270.491 270.491-121.721 270.491-270.491v-144.906c0-50.234 41.54-91.774 91.774-91.774s91.774 41.54 91.774 91.774v144.906c0 250.204-203.834 454.038-454.038 454.038s-454.038-203.834-454.038-454.038c0-250.204 203.834-454.038 454.038-454.038 16.423 0 28.981-12.558 28.981-28.981s-12.558-28.981-28.981-28.981zM512 660.528c-116.891 0-212.528-95.638-212.528-212.528s95.638-212.528 212.528-212.528 212.528 95.638 212.528 212.528c0 116.891-95.638 212.528-212.528 212.528z" />
<glyph unicode="&#xe901;" glyph-name="building" d="M898.415-64h-772.83c-16.423 0-28.981 12.558-28.981 28.981s12.558 28.981 28.981 28.981h67.623v840.453c0 16.423 12.558 28.981 28.981 28.981h67.623v67.623c0 16.423 12.558 28.981 28.981 28.981h386.415c16.423 0 28.981-12.558 28.981-28.981v-67.623h67.623c16.423 0 28.981-12.558 28.981-28.981v-840.453h67.623c16.423 0 28.981-12.558 28.981-28.981s-12.558-28.981-28.981-28.981zM251.17-6.038h521.66v811.472h-521.66v-811.472zM347.774 863.396h328.453v38.642h-328.453v-38.642zM666.566 32.604h-96.604c-16.423 0-28.981 12.558-28.981 28.981v96.604c0 16.423 12.558 28.981 28.981 28.981h96.604c16.423 0 28.981-12.558 28.981-28.981v-96.604c0-16.423-12.558-28.981-28.981-28.981zM598.943 90.566h38.642v38.642h-38.642v-38.642zM444.377 32.604h-96.604c-16.423 0-28.981 12.558-28.981 28.981v96.604c0 16.423 12.558 28.981 28.981 28.981h96.604c16.423 0 28.981-12.558 28.981-28.981v-96.604c0-16.423-12.558-28.981-28.981-28.981zM376.755 90.566h38.642v38.642h-38.642v-38.642zM666.566 225.811h-96.604c-16.423 0-28.981 12.558-28.981 28.981v96.604c0 16.423 12.558 28.981 28.981 28.981h96.604c16.423 0 28.981-12.558 28.981-28.981v-96.604c0-16.423-12.558-28.981-28.981-28.981zM598.943 283.774h38.642v38.642h-38.642v-38.642zM444.377 225.811h-96.604c-16.423 0-28.981 12.558-28.981 28.981v96.604c0 16.423 12.558 28.981 28.981 28.981h96.604c16.423 0 28.981-12.558 28.981-28.981v-96.604c0-16.423-12.558-28.981-28.981-28.981zM376.755 283.774h38.642v38.642h-38.642v-38.642zM666.566 419.019h-96.604c-16.423 0-28.981 12.558-28.981 28.981v96.604c0 16.423 12.558 28.981 28.981 28.981h96.604c16.423 0 28.981-12.558 28.981-28.981v-96.604c0-16.423-12.558-28.981-28.981-28.981zM598.943 476.981h38.642v38.642h-38.642v-38.642zM444.377 419.019h-96.604c-16.423 0-28.981 12.558-28.981 28.981v96.604c0 16.423 12.558 28.981 28.981 28.981h96.604c16.423 0 28.981-12.558 28.981-28.981v-96.604c0-16.423-12.558-28.981-28.981-28.981zM376.755 476.981h38.642v38.642h-38.642v-38.642zM666.566 612.226h-96.604c-16.423 0-28.981 12.558-28.981 28.981v96.604c0 16.423 12.558 28.981 28.981 28.981h96.604c16.423 0 28.981-12.558 28.981-28.981v-96.604c0-16.423-12.558-28.981-28.981-28.981zM598.943 670.189h38.642v38.642h-38.642v-38.642zM444.377 612.226h-96.604c-16.423 0-28.981 12.558-28.981 28.981v96.604c0 16.423 12.558 28.981 28.981 28.981h96.604c16.423 0 28.981-12.558 28.981-28.981v-96.604c0-16.423-12.558-28.981-28.981-28.981zM376.755 670.189h38.642v38.642h-38.642v-38.642z" />
<glyph unicode="&#xe902;" glyph-name="businessman" d="M995.019-64h-966.038c-8.694 0-17.389 3.864-23.185 10.626s-7.728 16.423-5.796 24.151c38.642 163.26 153.6 296.574 308.166 359.366 6.762 2.898 15.457 2.898 22.219 0s12.558-8.694 15.457-15.457l63.758-158.43 26.083 106.264c2.898 12.558 14.491 22.219 28.015 22.219h96.604c13.525 0 25.117-8.694 28.015-22.219l27.049-106.264 63.758 158.43c2.898 6.762 8.694 12.558 15.457 15.457s15.457 2.898 22.219 0c154.566-61.826 269.525-196.106 307.2-358.4 1.932-8.694 0-17.389-5.796-24.151-5.796-7.728-14.491-11.592-23.185-11.592zM66.657-6.038h889.721c-37.675 118.823-123.653 216.392-235.713 270.491l-85.011-213.494c-4.83-11.592-16.423-19.321-28.981-18.355s-23.185 9.66-26.083 22.219l-42.506 170.989h-51.2l-42.506-170.989c-2.898-12.558-13.525-21.253-26.083-22.219s-24.151 6.762-28.981 18.355l-85.977 213.494c-113.026-54.098-198.038-151.668-236.679-270.491zM512 322.415c-175.819 0-318.792 142.974-318.792 318.792s142.974 318.792 318.792 318.792 318.792-142.974 318.792-318.792-142.974-318.792-318.792-318.792zM512 902.038c-143.94 0-260.83-116.891-260.83-260.83s116.891-260.83 260.83-260.83 260.83 116.891 260.83 260.83c0 143.94-116.891 260.83-260.83 260.83z" />
<glyph unicode="&#xe903;" glyph-name="camera" d="M995.019 32.604h-966.038c-16.423 0-28.981 12.558-28.981 28.981v676.226c0 16.423 12.558 28.981 28.981 28.981h278.219l87.909 87.909c5.796 5.796 12.558 8.694 20.287 8.694h193.208c7.728 0 15.457-2.898 20.287-8.694l87.909-87.909h278.219c16.423 0 28.981-12.558 28.981-28.981v-676.226c0-16.423-12.558-28.981-28.981-28.981zM57.962 90.566h908.075v618.264h-260.83c-7.728 0-15.457 2.898-20.287 8.694l-87.909 87.909h-170.023l-87.909-87.909c-4.83-5.796-12.558-8.694-20.287-8.694h-260.83v-618.264zM512 177.509c-122.687 0-222.189 99.502-222.189 222.189s99.502 222.189 222.189 222.189c122.687 0 222.189-99.502 222.189-222.189s-99.502-222.189-222.189-222.189zM512 563.925c-90.808 0-164.226-73.419-164.226-164.226s73.419-164.226 164.226-164.226 164.226 73.419 164.226 164.226-73.419 164.226-164.226 164.226z" />
<glyph unicode="&#xe904;" glyph-name="cart" d="M222.189-64c-69.555 0-125.585 56.030-125.585 125.585 0 58.928 41.54 109.162 96.604 122.687v541.947l-184.513 184.513c-11.592 11.592-11.592 29.947 0 40.574 10.626 11.592 29.947 11.592 40.574 0l193.208-193.208c5.796-5.796 8.694-12.558 8.694-20.287v-579.623c0-16.423-12.558-28.981-28.981-28.981-37.675 0-67.623-29.947-67.623-67.623s29.947-67.623 67.623-67.623 67.623 29.947 67.623 67.623c0 16.423 12.558 28.981 28.981 28.981h676.226c16.423 0 28.981-12.558 28.981-28.981s-12.558-28.981-28.981-28.981h-650.143c-13.525-55.064-63.758-96.604-122.687-96.604zM898.415 129.208h-579.623c-16.423 0-28.981 12.558-28.981 28.981v483.019c0 16.423 12.558 28.981 28.981 28.981h579.623c16.423 0 28.981-12.558 28.981-28.981v-483.019c0-16.423-12.558-28.981-28.981-28.981zM347.774 187.17h521.66v425.057h-521.66v-425.057zM705.208 274.113c-16.423 0-28.981 12.558-28.981 28.981v193.208c0 16.423 12.558 28.981 28.981 28.981s28.981-12.558 28.981-28.981v-193.208c0-16.423-12.558-28.981-28.981-28.981zM608.604 274.113c-16.423 0-28.981 12.558-28.981 28.981v193.208c0 16.423 12.558 28.981 28.981 28.981s28.981-12.558 28.981-28.981v-193.208c0-16.423-12.558-28.981-28.981-28.981zM512 274.113c-16.423 0-28.981 12.558-28.981 28.981v193.208c0 16.423 12.558 28.981 28.981 28.981s28.981-12.558 28.981-28.981v-193.208c0-16.423-12.558-28.981-28.981-28.981z" />
<glyph unicode="&#xe905;" glyph-name="case" d="M995.019 32.604h-966.038c-16.423 0-28.981 12.558-28.981 28.981v676.226c0 16.423 12.558 28.981 28.981 28.981h357.434v67.623c0 16.423 12.558 28.981 28.981 28.981h193.208c16.423 0 28.981-12.558 28.981-28.981v-67.623h357.434c16.423 0 28.981-12.558 28.981-28.981v-676.226c0-16.423-12.558-28.981-28.981-28.981zM57.962 90.566h908.075v328.453h-376.755v-19.321c0-16.423-12.558-28.981-28.981-28.981h-96.604c-16.423 0-28.981 12.558-28.981 28.981v19.321h-376.755v-328.453zM492.679 428.679h38.642v38.642h-38.642v-38.642zM589.283 476.981h376.755v231.849h-908.075v-231.849h376.755v19.321c0 16.423 12.558 28.981 28.981 28.981h96.604c16.423 0 28.981-12.558 28.981-28.981v-19.321zM444.377 766.792h135.245v38.642h-135.245v-38.642z" />
<glyph unicode="&#xe906;" glyph-name="clock" d="M512-64c-282.083 0-512 229.917-512 512 0 0 0 0 0 0s0 0 0 0c1.932 113.026 39.608 221.223 109.162 309.132h-80.181c-16.423 0-28.981 12.558-28.981 28.981s12.558 28.981 28.981 28.981h144.906c0 0 0 0 0.966 0 0 0 0 0 0 0s0 0 0 0c3.864 0 6.762-0.966 10.626-1.932s6.762-3.864 9.66-6.762c2.898-2.898 4.83-5.796 5.796-9.66s1.932-6.762 1.932-10.626v-144.906c0-16.423-12.558-28.981-28.981-28.981s-28.981 12.558-28.981 28.981v67.623c-55.064-75.351-85.977-165.192-86.943-260.83 0-250.204 203.834-454.038 454.038-454.038s454.038 203.834 454.038 454.038c0 250.204-202.868 454.038-453.072 454.038-53.132-2.898-104.332-15.457-153.6-36.709-14.491-6.762-31.879 0-37.675 15.457-6.762 14.491 0 31.879 15.457 37.675 55.064 24.151 113.992 37.675 173.887 40.574 0.966 0 0.966 0 1.932 0 282.083 0 512-229.917 512-512s-230.883-511.034-512.966-511.034zM705.208 225.811c-7.728 0-14.491 2.898-20.287 8.694l-193.208 193.208c0 0 0 0-0.966 0.966-2.898 2.898-4.83 5.796-5.796 8.694s-1.932 6.762-1.932 10.626v289.811c0 16.423 12.558 28.981 28.981 28.981s28.981-12.558 28.981-28.981v-278.219l184.513-184.513c11.592-11.592 11.592-29.947 0-40.574-5.796-5.796-12.558-8.694-20.287-8.694z" />
<glyph unicode="&#xe907;" glyph-name="comment" d="M801.811 32.604c-5.796 0-11.592 1.932-16.423 4.83l-282.083 188.377h-474.325c-16.423 0-28.981 12.558-28.981 28.981v579.623c0 16.423 12.558 28.981 28.981 28.981h966.038c16.423 0 28.981-12.558 28.981-28.981v-579.623c0-16.423-12.558-28.981-28.981-28.981h-242.475l75.351-151.668c5.796-11.592 2.898-26.083-6.762-34.777-5.796-3.864-12.558-6.762-19.321-6.762zM57.962 283.774h454.038c5.796 0 11.592-1.932 16.423-4.83l199.004-132.347-47.336 95.638c-4.83 8.694-3.864 19.321 0.966 28.015s14.491 13.525 24.151 13.525h260.83v521.66h-908.075v-521.66zM705.208 491.472c-28.981 0-53.132 24.151-53.132 53.132s24.151 53.132 53.132 53.132 53.132-24.151 53.132-53.132-24.151-53.132-53.132-53.132zM705.208 549.434c-2.898 0-4.83-1.932-4.83-4.83s1.932-4.83 4.83-4.83 4.83 1.932 4.83 4.83-1.932 4.83-4.83 4.83zM512 491.472c-28.981 0-53.132 24.151-53.132 53.132s24.151 53.132 53.132 53.132c28.981 0 53.132-24.151 53.132-53.132s-24.151-53.132-53.132-53.132zM512 549.434c-2.898 0-4.83-1.932-4.83-4.83s1.932-4.83 4.83-4.83 4.83 1.932 4.83 4.83-1.932 4.83-4.83 4.83zM318.792 491.472c-28.981 0-53.132 24.151-53.132 53.132s24.151 53.132 53.132 53.132 53.132-24.151 53.132-53.132-24.151-53.132-53.132-53.132zM318.792 549.434c-2.898 0-4.83-1.932-4.83-4.83s1.932-4.83 4.83-4.83 4.83 1.932 4.83 4.83-1.932 4.83-4.83 4.83z" />
<glyph unicode="&#xe908;" glyph-name="diamond" d="M512-64c-6.762 0-12.558 1.932-17.389 5.796v0c0 0 0 0 0 0s0 0 0 0v0c-0.966 0.966-0.966 0.966-1.932 1.932 0 0 0 0 0 0-1.932 1.932-2.898 2.898-4.83 4.83l-483.019 676.226c-6.762 8.694-6.762 20.287-1.932 29.947 0 0 0 0.966 0.966 0.966l164.226 289.811c4.83 8.694 14.491 14.491 25.117 14.491h318.792c0 0 0 0 0 0h318.792c10.626 0 20.287-5.796 25.117-14.491l164.226-289.811c5.796-9.66 4.83-22.219-1.932-30.913l-483.019-676.226c-0.966-1.932-1.932-2.898-3.864-4.83 0 0 0 0 0 0s0 0 0 0c-0.966-0.966-1.932-1.932-2.898-2.898 0 0 0 0 0 0v0c-4.83-2.898-9.66-4.83-16.423-4.83 0 0 0 0 0 0zM384.483 612.226l126.551-520.694 118.823 520.694h-245.374zM689.751 612.226l-116.891-512.966 366.128 512.966h-249.238zM85.011 612.226l363.23-508.136-123.653 508.136h-239.577zM715.834 670.189h228.951l-113.992 201.902-114.958-201.902zM397.042 670.189h221.223l-107.23 200.936-113.992-200.936zM78.249 670.189h221.223l-107.23 200.936-113.992-200.936zM560.302 902.038l107.23-200.936 113.992 200.936h-221.223zM241.509 902.038l107.23-200.936 113.992 200.936h-221.223z" />
<glyph unicode="&#xe909;" glyph-name="edit" d="M898.415-64h-869.434c-16.423 0-28.981 12.558-28.981 28.981v869.434c0 16.423 12.558 28.981 28.981 28.981h664.634c29.947 26.083 67.623 39.608 108.196 39.608 44.438 0 85.977-17.389 116.891-48.302 61.826-61.826 64.725-160.362 8.694-225.087v-664.634c0-16.423-12.558-28.981-28.981-28.981zM57.962-6.038h811.472v577.691l-433.751-433.751c-0.966-0.966-1.932-1.932-2.898-2.898 0 0 0 0 0 0s0 0 0 0c-0.966-0.966-1.932-0.966-2.898-1.932 0 0 0 0 0 0s0 0 0 0c-3.864-2.898-9.66-3.864-14.491-3.864 0 0 0 0 0 0s0 0 0 0 0 0 0 0 0 0 0 0 0 0 0 0v0c0 0 0 0 0 0s0 0 0 0v0h-193.208c-16.423 0-28.981 12.558-28.981 28.981v193.208c0 7.728 2.898 14.491 8.694 20.287l433.751 433.751h-577.691v-811.472zM251.17 187.17h94.672l-94.672 94.672v-94.672zM359.366 254.792l56.030-56.030 442.445 442.445-152.634 152.634-442.445-442.445 56.030-56.030 269.525 269.525 40.574-40.574-269.525-269.525zM748.679 831.517l146.838-146.838c23.185 40.574 17.389 93.706-17.389 128.483-20.287 21.253-47.336 31.879-76.317 31.879-18.355 0-36.709-4.83-53.132-13.525z" />
<glyph unicode="&#xe90a;" glyph-name="envelope" d="M995.019 32.604h-966.038c-16.423 0-28.981 12.558-28.981 28.981v772.83c0 16.423 12.558 28.981 28.981 28.981h966.038c16.423 0 28.981-12.558 28.981-28.981v-192.242c0 0 0-0.966 0-0.966v-579.623c0-16.423-12.558-28.981-28.981-28.981zM57.962 90.566h908.075v499.442l-439.547-263.728c-9.66-5.796-20.287-5.796-29.947 0l-438.581 263.728v-499.442zM57.962 657.63l454.038-272.423 454.038 272.423v147.804h-908.075v-147.804z" />
<glyph unicode="&#xe90b;" glyph-name="layers" d="M512-64c-4.83 0-10.626 0.966-14.491 3.864l-483.019 289.811c-8.694 5.796-14.491 14.491-14.491 25.117s5.796 19.321 14.491 25.117l96.604 57.962c13.525 8.694 31.879 3.864 39.608-9.66 8.694-13.525 3.864-31.879-9.66-39.608l-56.030-33.811 426.989-256 426.989 256-55.064 32.845c-13.525 8.694-18.355 26.083-9.66 39.608s26.083 18.355 39.608 9.66l96.604-57.962c8.694-4.83 14.491-14.491 14.491-25.117s-5.796-19.321-14.491-25.117l-483.019-289.811c-4.83-1.932-10.626-2.898-15.457-2.898zM512 129.208c-4.83 0-10.626 0.966-14.491 3.864l-483.019 289.811c-8.694 5.796-14.491 14.491-14.491 25.117s5.796 19.321 14.491 25.117l96.604 57.962c13.525 8.694 31.879 3.864 39.608-9.66 8.694-13.525 3.864-31.879-9.66-39.608l-56.030-33.811 426.989-256 426.989 256-55.064 32.845c-13.525 8.694-18.355 26.083-9.66 39.608s26.083 18.355 39.608 9.66l96.604-57.962c8.694-4.83 14.491-14.491 14.491-25.117s-5.796-19.321-14.491-25.117l-483.019-289.811c-4.83-1.932-10.626-2.898-15.457-2.898zM512 322.415c-4.83 0-10.626 0.966-14.491 3.864l-483.019 289.811c-8.694 5.796-14.491 14.491-14.491 25.117s5.796 19.321 14.491 25.117l483.019 289.811c9.66 5.796 20.287 5.796 29.947 0l483.019-289.811c8.694-4.83 14.491-14.491 14.491-25.117s-5.796-19.321-14.491-25.117l-483.019-289.811c-4.83-2.898-10.626-3.864-15.457-3.864zM85.011 641.208l426.989-256 426.989 256-426.989 256-426.989-256z" />
<glyph unicode="&#xe90c;" glyph-name="lock" d="M927.396-64h-830.792v540.981h144.906v263.728l0.966 2.898c25.117 126.551 136.211 216.392 264.694 216.392 1.932 0 2.898 0 4.83 0 130.415 1.932 243.442-88.875 269.525-216.392l0.966-2.898v-263.728h144.906v-540.981zM154.566-6.038h714.868v425.057h-714.868v-425.057zM299.472 476.981h425.057v257.932c-21.253 98.536-110.128 169.057-211.562 167.125h-1.932c-101.434 1.932-190.309-68.589-211.562-167.125v-257.932zM512 80.906c-42.506 0-77.283 34.777-77.283 77.283v96.604c0 42.506 34.777 77.283 77.283 77.283s77.283-34.777 77.283-77.283v-96.604c0-42.506-34.777-77.283-77.283-77.283zM512 274.113c-10.626 0-19.321-8.694-19.321-19.321v-96.604c0-10.626 8.694-19.321 19.321-19.321s19.321 8.694 19.321 19.321v96.604c0 10.626-8.694 19.321-19.321 19.321z" />
<glyph unicode="&#xe90d;" glyph-name="marker" d="M512-64c-8.694 0-16.423 3.864-22.219 9.66l-269.525 309.132c-77.283 79.215-118.823 183.547-117.857 294.642s45.404 214.46 124.619 292.709c76.317 74.385 177.751 115.925 284.981 117.857 229.917-2.898 413.464-192.242 410.566-421.192-1.932-107.23-44.438-207.698-118.823-284.015l-269.525-309.132c-5.796-5.796-13.525-9.66-22.219-9.66zM512 902.038c-91.774-0.966-178.717-37.675-244.408-102.4-68.589-66.657-106.264-156.498-107.23-252.136s35.743-185.479 102.4-254.068c0 0 0.966-0.966 0.966-0.966l248.272-283.049 248.272 284.015c0 0 0.966 0.966 0.966 0.966 64.725 65.691 100.468 152.634 102.4 245.374 2.898 197.072-154.566 359.366-351.638 362.264zM512 419.019c-69.555 0-125.585 56.030-125.585 125.585s56.030 125.585 125.585 125.585c69.555 0 125.585-56.030 125.585-125.585s-56.030-125.585-125.585-125.585zM512 612.226c-37.675 0-67.623-29.947-67.623-67.623s29.947-67.623 67.623-67.623c37.675 0 67.623 29.947 67.623 67.623s-29.947 67.623-67.623 67.623z" />
<glyph unicode="&#xe90e;" glyph-name="person" d="M28.981-64c-1.932 0-3.864 0-5.796 0.966-15.457 2.898-26.083 18.355-22.219 33.811 38.642 191.275 180.649 338.113 360.332 390.279-100.468 53.132-168.091 159.396-168.091 280.151 0 175.819 142.974 318.792 318.792 318.792s318.792-142.974 318.792-318.792c0-120.755-67.623-227.019-167.125-280.151 179.683-51.2 321.691-199.004 360.332-390.279 2.898-15.457-6.762-30.913-22.219-33.811s-30.913 6.762-33.811 22.219c-43.472 212.528-230.883 364.196-446.309 363.23-4.83 0-10.626 0-15.457 0-0.966 0-0.966 0-1.932 0-215.426 0-401.872-151.668-444.377-363.23-5.796-13.525-17.389-23.185-30.913-23.185zM505.238 380.377c1.932 0 4.83 0 6.762 0s4.83 0 6.762 0c141.042 3.864 254.068 119.789 254.068 260.83 0 143.94-116.891 260.83-260.83 260.83s-260.83-116.891-260.83-260.83c0-141.042 113.026-256.966 254.068-260.83z" />
<glyph unicode="&#xe90f;" glyph-name="support" d="M512-64c-202.868 0-371.925 145.872-408.634 338.113h-103.366v347.774h103.366c36.709 192.242 205.766 338.113 408.634 338.113 220.257 0 400.906-172.921 414.43-389.313 56.030-12.558 97.57-62.792 97.57-122.687s-41.54-109.162-97.57-122.687c-13.525-216.392-194.174-389.313-414.43-389.313zM212.528 156.257c63.758-97.57 173.887-162.294 299.472-162.294 197.072 0 357.434 160.362 357.434 357.434v28.981h28.981c37.675 0 67.623 29.947 67.623 67.623s-29.947 67.623-67.623 67.623h-28.981v28.981c0 37.675-29.947 67.623-67.623 67.623h-96.604c-38.642 0-73.419 17.389-96.604 45.404-23.185-28.015-57.962-45.404-96.604-45.404h-289.811c-37.675 0-67.623-29.947-67.623-67.623v-193.208c0-90.808 73.419-164.226 164.226-164.226h118.823c-1.932 5.796-2.898 12.558-2.898 19.321 0 42.506 34.777 77.283 77.283 77.283s77.283-34.777 77.283-77.283-34.777-77.283-77.283-77.283h-193.208c-38.642 0-74.385 9.66-106.264 27.049zM512 225.811c-10.626 0-19.321-8.694-19.321-19.321s8.694-19.321 19.321-19.321c10.626 0 19.321 8.694 19.321 19.321s-8.694 19.321-19.321 19.321zM57.962 332.075h38.642c0 6.762 0 12.558 0 19.321v193.208c0 6.762 0 12.558 0 19.321h-38.642v-231.849zM579.623 737.811h57.962c0-37.675 29.947-67.623 67.623-67.623h96.604c17.389 0 33.811-3.864 48.302-9.66-48.302 140.075-181.615 241.509-338.113 241.509s-289.811-101.434-338.113-241.509c14.491 5.796 30.913 9.66 48.302 9.66h289.811c37.675 0 67.623 29.947 67.623 67.623z" />
<glyph unicode="&#xe910;" glyph-name="tick" d="M512.966-64c-283.049 0-512.966 229.917-512.966 512s229.917 512 512 512c74.385-0.966 148.77-19.321 215.426-51.2 14.491-6.762 20.287-24.151 13.525-38.642s-24.151-20.287-38.642-13.525c-58.928 28.981-125.585 44.438-190.309 45.404-250.204 0-454.038-203.834-454.038-454.038s203.834-454.038 454.038-454.038c85.977 2.898 169.057 28.981 240.543 78.249 196.106 133.313 256 394.143 142.008 597.011l-360.332-432.785c-4.83-5.796-12.558-9.66-21.253-10.626-7.728 0-16.423 2.898-22.219 8.694l-241.509 241.509c-11.592 11.592-11.592 29.947 0 40.574 11.592 11.592 29.947 11.592 40.574 0l219.291-219.291 366.128 439.547c5.796 6.762 14.491 10.626 24.151 10.626 8.694 0 17.389-4.83 22.219-12.558 158.43-233.781 96.604-552.574-137.177-711.004-80.181-55.064-173.887-85.011-271.457-87.909z" />
<glyph unicode="&#xe911;" glyph-name="truck" d="M850.113 32.604c-58.928 0-109.162 41.54-122.687 96.604h-285.947c-13.525-55.064-62.792-96.604-122.687-96.604s-109.162 41.54-122.687 96.604h-70.521c-16.423 0-28.981 12.558-28.981 28.981v193.208c0 16.423 12.558 28.981 28.981 28.981h550.642v164.226c0 16.423 12.558 28.981 28.981 28.981h193.208c69.555 0 125.585-56.030 125.585-125.585v-289.811c0-16.423-12.558-28.981-28.981-28.981h-22.219c-13.525-55.064-63.758-96.604-122.687-96.604zM782.491 158.189c0-37.675 29.947-67.623 67.623-67.623s67.623 29.947 67.623 67.623-29.947 67.623-67.623 67.623-67.623-29.947-67.623-67.623zM251.17 158.189c0-37.675 29.947-67.623 67.623-67.623s67.623 29.947 67.623 67.623-29.947 67.623-67.623 67.623-67.623-29.947-67.623-67.623zM441.479 187.17h286.913c13.525 55.064 62.792 96.604 122.687 96.604 52.166 0 96.604-31.879 115.925-77.283v241.509c0 37.675-29.947 67.623-67.623 67.623h-165.192v-164.226c0-16.423-12.558-28.981-28.981-28.981h-550.642v-135.245h41.54c13.525 55.064 62.792 96.604 122.687 96.604s109.162-41.54 122.687-96.604zM608.604 419.019h-289.811c-16.423 0-28.981 12.558-28.981 28.981v289.811c0 16.423 12.558 28.981 28.981 28.981h289.811c16.423 0 28.981-12.558 28.981-28.981v-289.811c0-16.423-12.558-28.981-28.981-28.981zM347.774 476.981h231.849v231.849h-231.849v-231.849zM222.189 419.019h-193.208c-16.423 0-28.981 12.558-28.981 28.981v193.208c0 16.423 12.558 28.981 28.981 28.981h193.208c16.423 0 28.981-12.558 28.981-28.981v-193.208c0-16.423-12.558-28.981-28.981-28.981zM57.962 476.981h135.245v135.245h-135.245v-135.245zM222.189 708.83h-96.604c-16.423 0-28.981 12.558-28.981 28.981v96.604c0 16.423 12.558 28.981 28.981 28.981h96.604c16.423 0 28.981-12.558 28.981-28.981v-96.604c0-16.423-12.558-28.981-28.981-28.981zM154.566 766.792h38.642v38.642h-38.642v-38.642z" />
<glyph unicode="&#xe912;" glyph-name="puzzle" d="M995.019-64h-772.83c-16.423 0-28.981 12.558-28.981 28.981v260.83h-67.623c-69.555 0-125.585 56.030-125.585 125.585s56.030 125.585 125.585 125.585h67.623v260.83c0 16.423 12.558 28.981 28.981 28.981h260.83v67.623c0 69.555 56.030 125.585 125.585 125.585s125.585-56.030 125.585-125.585v-67.623h260.83c16.423 0 28.981-12.558 28.981-28.981v-289.811c0-16.423-12.558-28.981-28.981-28.981h-96.604c-37.675 0-67.623-29.947-67.623-67.623s29.947-67.623 67.623-67.623h96.604c16.423 0 28.981-12.558 28.981-28.981v-289.811c0-16.423-12.558-28.981-28.981-28.981zM251.17-6.038h714.868v231.849h-67.623c-69.555 0-125.585 56.030-125.585 125.585s56.030 125.585 125.585 125.585h67.623v231.849h-260.83c-16.423 0-28.981 12.558-28.981 28.981v96.604c0 37.675-29.947 67.623-67.623 67.623s-67.623-29.947-67.623-67.623v-96.604c0-16.423-12.558-28.981-28.981-28.981h-260.83v-260.83c0-16.423-12.558-28.981-28.981-28.981h-96.604c-37.675 0-67.623-29.947-67.623-67.623s29.947-67.623 67.623-67.623h96.604c16.423 0 28.981-12.558 28.981-28.981v-260.83z" />
<glyph unicode="&#xe913;" glyph-name="extend" d="M995.019-64c0 0 0 0 0 0h-193.208c-16.423 0-28.981 12.558-28.981 28.981s12.558 28.981 28.981 28.981h123.653l-240.543 240.543c-11.592 11.592-11.592 29.947 0 40.574 11.592 11.592 29.947 11.592 40.574 0l240.543-240.543v123.653c0 16.423 12.558 28.981 28.981 28.981s28.981-12.558 28.981-28.981v-193.208c0 0 0 0 0 0s0 0 0 0 0 0 0 0c0-3.864-0.966-7.728-1.932-10.626s-2.898-6.762-5.796-8.694c0 0 0 0 0 0s0 0 0 0 0 0-0.966-0.966c0 0 0 0 0 0s0 0 0 0c-2.898-2.898-5.796-4.83-8.694-5.796-3.864-1.932-7.728-2.898-11.592-2.898 0 0 0 0 0 0s0 0 0 0zM28.981-64c0 0 0 0 0 0s0 0 0 0c-3.864 0-7.728 0.966-10.626 1.932s-6.762 2.898-8.694 5.796v0c0 0 0 0 0 0s0 0-0.966 0.966c0 0 0 0 0 0-2.898 2.898-4.83 5.796-5.796 8.694-1.932 3.864-2.898 7.728-2.898 11.592 0 0 0 0 0 0s0 0 0 0 0 0 0 0v193.208c0 16.423 12.558 28.981 28.981 28.981s28.981-12.558 28.981-28.981v-123.653l240.543 240.543c11.592 11.592 29.947 11.592 40.574 0 11.592-11.592 11.592-29.947 0-40.574l-240.543-240.543h123.653c16.423 0 28.981-12.558 28.981-28.981s-12.558-28.981-28.981-28.981h-193.208c0 0 0 0 0 0zM705.208 612.226c-7.728 0-14.491 2.898-20.287 8.694-11.592 11.592-11.592 29.947 0 40.574l240.543 240.543h-123.653c-16.423 0-28.981 12.558-28.981 28.981s12.558 28.981 28.981 28.981h193.208c0 0 0 0 0 0s0 0 0 0 0 0 0 0c3.864 0 7.728-0.966 10.626-1.932s6.762-2.898 8.694-5.796c0 0 0 0 0 0s0 0 0.966-0.966c0 0 0 0 0 0v0c2.898-2.898 4.83-5.796 5.796-8.694s1.932-6.762 1.932-10.626c0 0 0 0 0 0s0 0 0 0v-193.208c0-16.423-12.558-28.981-28.981-28.981s-28.981 12.558-28.981 28.981v122.687l-239.577-240.543c-5.796-5.796-12.558-8.694-20.287-8.694zM318.792 612.226c-7.728 0-14.491 2.898-20.287 8.694l-240.543 240.543v-123.653c0-16.423-12.558-28.981-28.981-28.981s-28.981 12.558-28.981 28.981v193.208c0 0 0 0 0 0s0 0 0 0c0 3.864 0.966 7.728 1.932 10.626s2.898 6.762 5.796 8.694c0 0 0 0 0 0s0 0 0.966 0.966c0 0 0 0 0 0 2.898 2.898 5.796 4.83 8.694 5.796 3.864 1.932 7.728 2.898 11.592 2.898 0 0 0 0 0 0s0 0 0 0h193.208c16.423 0 28.981-12.558 28.981-28.981s-12.558-28.981-28.981-28.981h-123.653l240.543-240.543c11.592-11.592 11.592-29.947 0-40.574-5.796-5.796-12.558-8.694-20.287-8.694z" />
<glyph unicode="&#xe914;" glyph-name="code" d="M801.811 32.604c-16.423 0-28.981 12.558-28.981 28.981s12.558 28.981 28.981 28.981c37.675 0 67.623 29.947 67.623 67.623v193.208c0 38.642 17.389 73.419 45.404 96.604-28.015 23.185-45.404 57.962-45.404 96.604v193.208c0 37.675-29.947 67.623-67.623 67.623-16.423 0-28.981 12.558-28.981 28.981s12.558 28.981 28.981 28.981c69.555 0 125.585-56.030 125.585-125.585v-193.208c0-37.675 29.947-67.623 67.623-67.623 16.423 0 28.981-12.558 28.981-28.981s-12.558-28.981-28.981-28.981c-37.675 0-67.623-29.947-67.623-67.623v-193.208c0-69.555-56.030-125.585-125.585-125.585zM222.189 32.604c-69.555 0-125.585 56.030-125.585 125.585v193.208c0 37.675-29.947 67.623-67.623 67.623-16.423 0-28.981 12.558-28.981 28.981s12.558 28.981 28.981 28.981c37.675 0 67.623 29.947 67.623 67.623v193.208c0 69.555 56.030 125.585 125.585 125.585 16.423 0 28.981-12.558 28.981-28.981s-12.558-28.981-28.981-28.981c-37.675 0-67.623-29.947-67.623-67.623v-193.208c0-38.642-17.389-73.419-45.404-96.604 28.015-23.185 45.404-57.962 45.404-96.604v-193.208c0-37.675 29.947-67.623 67.623-67.623 16.423 0 28.981-12.558 28.981-28.981s-12.558-28.981-28.981-28.981zM729.358 394.868c-28.981 0-53.132 24.151-53.132 53.132s24.151 53.132 53.132 53.132 53.132-24.151 53.132-53.132c0-28.981-24.151-53.132-53.132-53.132zM729.358 452.83c-2.898 0-4.83-1.932-4.83-4.83s1.932-4.83 4.83-4.83 4.83 1.932 4.83 4.83-1.932 4.83-4.83 4.83zM512 394.868c-28.981 0-53.132 24.151-53.132 53.132s24.151 53.132 53.132 53.132c28.981 0 53.132-24.151 53.132-53.132s-24.151-53.132-53.132-53.132zM512 452.83c-2.898 0-4.83-1.932-4.83-4.83s1.932-4.83 4.83-4.83 4.83 1.932 4.83 4.83-1.932 4.83-4.83 4.83zM294.642 394.868c-28.981 0-53.132 24.151-53.132 53.132s24.151 53.132 53.132 53.132 53.132-24.151 53.132-53.132c0-28.981-24.151-53.132-53.132-53.132zM294.642 452.83c-2.898 0-4.83-1.932-4.83-4.83s1.932-4.83 4.83-4.83 4.83 1.932 4.83 4.83-1.932 4.83-4.83 4.83z" />
<glyph unicode="&#xe915;" glyph-name="bed" d="M898.415 32.604c-16.423 0-28.981 12.558-28.981 28.981v67.623h-714.868v-67.623c0-16.423-12.558-28.981-28.981-28.981s-28.981 12.558-28.981 28.981v67.623h-67.623c-16.423 0-28.981 12.558-28.981 28.981v193.208c0 0 0 0 0 0s0 0 0 0 0 0 0 0c0 4.83 0.966 9.66 2.898 13.525l93.706 186.445v283.049c0 16.423 12.558 28.981 28.981 28.981h772.83c16.423 0 28.981-12.558 28.981-28.981v-283.049l93.706-186.445c1.932-3.864 2.898-8.694 2.898-13.525 0 0 0 0 0 0s0 0 0 0 0 0 0 0v-193.208c0-16.423-12.558-28.981-28.981-28.981h-67.623v-67.623c0-16.423-12.558-28.981-28.981-28.981zM898.415 187.17h67.623v135.245h-908.075v-135.245h840.453zM76.317 380.377h872.332l-67.623 135.245h-737.087l-67.623-135.245zM782.491 573.585h86.943v231.849h-714.868v-231.849h86.943v164.226c0 16.423 12.558 28.981 28.981 28.981h193.208c16.423 0 28.981-12.558 28.981-28.981v-164.226h38.642v164.226c0 16.423 12.558 28.981 28.981 28.981h193.208c16.423 0 28.981-12.558 28.981-28.981v-164.226zM589.283 573.585h135.245v135.245h-135.245v-135.245zM299.472 573.585h135.245v135.245h-135.245v-135.245z" />
<glyph unicode="&#xe916;" glyph-name="pool" d="M898.415-64c-38.642 0-73.419 17.389-96.604 45.404-23.185-28.015-57.962-45.404-96.604-45.404s-73.419 17.389-96.604 45.404c-23.185-28.015-57.962-45.404-96.604-45.404s-73.419 17.389-96.604 45.404c-23.185-28.015-57.962-45.404-96.604-45.404s-73.419 17.389-96.604 45.404c-23.185-28.015-57.962-45.404-96.604-45.404-69.555 0-125.585 56.030-125.585 125.585 0 16.423 12.558 28.981 28.981 28.981s28.981-12.558 28.981-28.981c0-37.675 29.947-67.623 67.623-67.623s67.623 29.947 67.623 67.623c0 16.423 12.558 28.981 28.981 28.981s28.981-12.558 28.981-28.981c0-37.675 29.947-67.623 67.623-67.623s67.623 29.947 67.623 67.623c0 16.423 12.558 28.981 28.981 28.981s28.981-12.558 28.981-28.981c0-37.675 29.947-67.623 67.623-67.623s67.623 29.947 67.623 67.623c0 16.423 12.558 28.981 28.981 28.981s28.981-12.558 28.981-28.981c0-37.675 29.947-67.623 67.623-67.623s67.623 29.947 67.623 67.623c0 16.423 12.558 28.981 28.981 28.981s28.981-12.558 28.981-28.981c0-37.675 29.947-67.623 67.623-67.623s67.623 29.947 67.623 67.623c0 16.423 12.558 28.981 28.981 28.981s28.981-12.558 28.981-28.981c0-69.555-56.030-125.585-125.585-125.585zM898.415 129.208c-38.642 0-73.419 17.389-96.604 45.404-23.185-28.015-57.962-45.404-96.604-45.404s-73.419 17.389-96.604 45.404c-23.185-28.015-57.962-45.404-96.604-45.404s-73.419 17.389-96.604 45.404c-23.185-28.015-57.962-45.404-96.604-45.404s-73.419 17.389-96.604 45.404c-23.185-28.015-57.962-45.404-96.604-45.404-69.555 0-125.585 56.030-125.585 125.585 0 16.423 12.558 28.981 28.981 28.981s28.981-12.558 28.981-28.981c0-37.675 29.947-67.623 67.623-67.623s67.623 29.947 67.623 67.623c0 16.423 12.558 28.981 28.981 28.981s28.981-12.558 28.981-28.981c0-37.675 29.947-67.623 67.623-67.623s67.623 29.947 67.623 67.623c0 16.423 12.558 28.981 28.981 28.981s28.981-12.558 28.981-28.981c0-37.675 29.947-67.623 67.623-67.623s67.623 29.947 67.623 67.623c0 16.423 12.558 28.981 28.981 28.981s28.981-12.558 28.981-28.981c0-37.675 29.947-67.623 67.623-67.623s67.623 29.947 67.623 67.623c0 16.423 12.558 28.981 28.981 28.981s28.981-12.558 28.981-28.981c0-37.675 29.947-67.623 67.623-67.623s67.623 29.947 67.623 67.623c0 16.423 12.558 28.981 28.981 28.981s28.981-12.558 28.981-28.981c0-69.555-56.030-125.585-125.585-125.585zM801.811 322.415c-16.423 0-28.981 12.558-28.981 28.981v67.623h-521.66v-67.623c0-16.423-12.558-28.981-28.981-28.981s-28.981 12.558-28.981 28.981v483.019c0 69.555 56.030 125.585 125.585 125.585 16.423 0 28.981-12.558 28.981-28.981s-12.558-28.981-28.981-28.981c-37.675 0-67.623-29.947-67.623-67.623v-67.623h521.66v67.623c0 69.555 56.030 125.585 125.585 125.585 16.423 0 28.981-12.558 28.981-28.981s-12.558-28.981-28.981-28.981c-37.675 0-67.623-29.947-67.623-67.623v-483.019c0-16.423-12.558-28.981-28.981-28.981zM251.17 476.981h521.66v86.943h-521.66v-86.943zM251.17 621.887h521.66v86.943h-521.66v-86.943z" />
<glyph unicode="&#xe917;" glyph-name="drawing" d="M995.019-64h-531.321c-16.423 0-28.981 12.558-28.981 28.981s12.558 28.981 28.981 28.981h115.925v67.623c0 16.423 12.558 28.981 28.981 28.981s28.981-12.558 28.981-28.981v-67.623h328.453v425.057h-328.453v-67.623c0-16.423-12.558-28.981-28.981-28.981s-28.981 12.558-28.981 28.981v193.208c0 16.423 12.558 28.981 28.981 28.981s28.981-12.558 28.981-28.981v-67.623h328.453v425.057h-328.453v-67.623c0-16.423-12.558-28.981-28.981-28.981s-28.981 12.558-28.981 28.981v67.623h-521.66v-425.057h260.83c16.423 0 28.981-12.558 28.981-28.981s-12.558-28.981-28.981-28.981h-260.83v-425.057h115.925c16.423 0 28.981-12.558 28.981-28.981s-12.558-28.981-28.981-28.981h-144.906c-16.423 0-28.981 12.558-28.981 28.981v966.038c0 16.423 12.558 28.981 28.981 28.981h966.038c16.423 0 28.981-12.558 28.981-28.981v-966.038c0-16.423-12.558-28.981-28.981-28.981z" />
<glyph unicode="&#xe918;" glyph-name="home" d="M898.415-64h-289.811c-16.423 0-28.981 12.558-28.981 28.981v260.83h-135.245v-260.83c0-16.423-12.558-28.981-28.981-28.981h-289.811c-16.423 0-28.981 12.558-28.981 28.981v454.038h-67.623c-11.592 0-22.219 6.762-27.049 18.355-3.864 10.626-1.932 23.185 6.762 30.913l184.513 184.513v181.615c0 16.423 12.558 28.981 28.981 28.981h96.604c16.423 0 28.981-12.558 28.981-28.981v-27.049l143.94 143.94c11.592 11.592 29.947 11.592 40.574 0l483.019-483.019c8.694-8.694 10.626-20.287 6.762-31.879-4.83-10.626-15.457-18.355-27.049-18.355h-67.623v-454.038c0-15.457-12.558-28.015-28.981-28.015zM637.585-6.038h231.849v454.038c0 16.423 12.558 28.981 28.981 28.981h27.049l-413.464 413.464-172.921-172.921c-8.694-8.694-20.287-10.626-31.879-6.762-10.626 4.83-17.389 15.457-17.389 27.049v67.623h-38.642v-164.226c0-7.728-2.898-15.457-8.694-20.287l-143.94-143.94h27.049c16.423 0 28.981-12.558 28.981-28.981v-454.038h231.849v260.83c0 16.423 12.558 28.981 28.981 28.981h193.208c16.423 0 28.981-12.558 28.981-28.981v-260.83z" />
<glyph unicode="&#xe919;" glyph-name="devices" d="M705.208 32.604h-289.811c-16.423 0-28.981 12.558-28.981 28.981s12.558 28.981 28.981 28.981h67.623v38.642h-135.245v-67.623c0-16.423-12.558-28.981-28.981-28.981h-289.811c-16.423 0-28.981 12.558-28.981 28.981v483.019c0 16.423 12.558 28.981 28.981 28.981h67.623v260.83c0 16.423 12.558 28.981 28.981 28.981h869.434c16.423 0 28.981-12.558 28.981-28.981v-676.226c0-16.423-12.558-28.981-28.981-28.981h-357.434v-38.642h67.623c16.423 0 28.981-12.558 28.981-28.981s-12.558-28.981-28.981-28.981zM540.981 90.566h38.642v38.642h-38.642v-38.642zM57.962 90.566h231.849v425.057h-231.849v-425.057zM608.604 187.17h357.434v38.642h-618.264v-38.642h260.83zM347.774 283.774h618.264v521.66h-811.472v-231.849h164.226c16.423 0 28.981-12.558 28.981-28.981v-260.83z" />
<glyph unicode="&#xe91a;" glyph-name="shield" d="M512-64c-228.951 0-415.396 186.445-415.396 415.396v386.415c0 10.626 5.796 21.253 16.423 26.083l386.415 193.208c7.728 3.864 17.389 3.864 26.083 0l386.415-193.208c9.66-4.83 16.423-14.491 16.423-26.083v-386.415c-0.966-228.951-187.411-415.396-416.362-415.396zM154.566 719.457v-368.060c0-197.072 160.362-357.434 357.434-357.434s357.434 160.362 357.434 357.434v368.060l-357.434 178.717-357.434-178.717zM463.698 322.415c-7.728 0-14.491 2.898-20.287 8.694l-96.604 96.604c-11.592 11.592-11.592 29.947 0 40.574 11.592 11.592 29.947 11.592 40.574 0l76.317-76.317 172.921 172.921c11.592 11.592 29.947 11.592 40.574 0 11.592-11.592 11.592-29.947 0-40.574l-193.208-193.208c-5.796-5.796-12.558-8.694-20.287-8.694z" />
<glyph unicode="&#xe91b;" glyph-name="arrow-right" d="M318.792-64c-6.762 0-12.558 1.932-18.355 6.762-12.558 9.66-14.491 28.015-4.83 40.574l372.891 464.664-371.925 464.664c-9.66 12.558-7.728 30.913 4.83 40.574s30.913 7.728 40.574-4.83l386.415-483.019c8.694-10.626 8.694-26.083 0-35.743l-386.415-483.019c-5.796-6.762-14.491-10.626-23.185-10.626z" />
<glyph unicode="&#xe91c;" glyph-name="quote" d="M898.415 32.604h-289.811c-16.423 0-28.981 12.558-28.981 28.981v579.623c0 122.687 99.502 222.189 222.189 222.189 16.423 0 28.981-12.558 28.981-28.981s-12.558-28.981-28.981-28.981c-90.808 0-164.226-73.419-164.226-164.226v-260.83h260.83c16.423 0 28.981-12.558 28.981-28.981v-289.811c0-16.423-12.558-28.981-28.981-28.981zM637.585 90.566h231.849v231.849h-231.849v-231.849zM415.396 32.604h-289.811c-16.423 0-28.981 12.558-28.981 28.981v579.623c0 122.687 99.502 222.189 222.189 222.189 16.423 0 28.981-12.558 28.981-28.981s-12.558-28.981-28.981-28.981c-90.808 0-164.226-73.419-164.226-164.226v-260.83h260.83c16.423 0 28.981-12.558 28.981-28.981v-289.811c0-16.423-12.558-28.981-28.981-28.981zM154.566 90.566h231.849v231.849h-231.849v-231.849z" />
<glyph unicode="&#xe91d;" glyph-name="arrow-left" d="M705.208-64c-8.694 0-17.389 3.864-22.219 10.626l-386.415 483.019c-8.694 10.626-8.694 26.083 0 35.743l386.415 483.019c9.66 12.558 28.015 14.491 40.574 4.83s14.491-28.015 4.83-40.574l-372.891-464.664 371.925-464.664c9.66-12.558 7.728-30.913-4.83-40.574-4.83-4.83-10.626-6.762-17.389-6.762z" />
</font>
</defs>
</svg>
